Skip to main content

Otis Grove Live at Tammany Hall on 2013-03-01

Audio Preview

etree
Otis Grove Live at Tammany Hall on 2013-03-01




01 crowd
02 The Grind
03 The Bunk
04 Crank it UP
05 Fried Chicken and Biscuits
06 Jimi Medley
07 BoogaLOU
08 The Revenge of Dr. Fantastic
09 Goin' Places
10 Proper Man -> Monark
11 In Memory of Elizabeth Reed *

* - w/ Tim Palmieri


Collection OtisGrove
Band/Artist Otis Grove
Venue Tammany Hall
Location Worcester, MA

Source Schoeps MK4>Sonosax SX-R4(24bit/96khz)
Lineage WAV>USB>Macbook Pro>Wave Editor(tracking,fades,resample(izotope)/dither(mbit+)to 16 bit/44.1k)>XAct(FLAC 8,ffp,fix sbe)
Taped by Andy Murray
Transferred by Andy Murray

Notes

Otis Grove
2013-03-01
Tammany Hall
Worcester, MA

mk4s were hung from the lighting rig dfc ORTF

Source:
Schoeps mk4> SchoepsNbox actives/Naiant PFAs>Sonosax SX-R4(24bit/48khz)


Lineage: WAV>USB>Macbook Pro>Wave Editor(tracking,fades,resample(izotope)/dither(mbit+)to 16 bit/44.1k)>XAct(FLAC 8,ffp,fix sbe)

Taped by: Andy Murray
Transferred by: Andy Murray

Otis Grove opened for Kung Fu

1 Set

length expanded size cdr WAVE problems fmt ratio filename
0:25.18 4452380 B --- -- ----- wav 1.0000 og2013-03-01_mk4_1644_d1t01.wav
5:21.40 56718524 B --- -- ----- wav 1.0000 og2013-03-01_mk4_1644_d1t02.wav
5:55.09 62643212 B --- -- ----- wav 1.0000 og2013-03-01_mk4_1644_d1t03.wav
6:06.15 64597724 B --- -- ----- wav 1.0000 og2013-03-01_mk4_1644_d1t04.wav
7:37.59 80753612 B --- -- ----- wav 1.0000 og2013-03-01_mk4_1644_d1t05.wav
8:21.10 88399964 B --- -- ----- wav 1.0000 og2013-03-01_mk4_1644_d1t06.wav
5:35.25 59152844 B --- -- ----- wav 1.0000 og2013-03-01_mk4_1644_d1t07.wav
6:39.33 70461260 B --- -- ----- wav 1.0000 og2013-03-01_mk4_1644_d1t08.wav
10:02.52 106315148 B --- -- ----- wav 1.0000 og2013-03-01_mk4_1644_d1t09.wav
11:21.53 120253100 B --- -- ----- wav 1.0000 og2013-03-01_mk4_1644_d1t10.wav
15:01.23 158990540 B --- -- ----- wav 1.0000 og2013-03-01_mk4_1644_d1t11.wav
82:27.37 872738308 B 1.0000 (11 files)

comment
Reviews

There are no reviews yet. Be the first one to write a review.
DOWNLOAD OPTIONS
In Collection
Otis Grove
In Collection
Live Music Archive
Uploaded by
andyjah
on 3/16/2013
Views
72
SIMILAR ITEMS (based on metadata)
Otis Grove
by Otis Grove
etree
eye 91
favorite 0
comment 0
Source: Schoeps MK4>Sonosax SX-R4(24bit/96khz)
Otis Grove
by Otis Grove
etree
eye 69
favorite 0
comment 0
Source: Schoeps MK22/MK4>KC5>CMC6>Sonosax SX-R4(24bit/48khz) & SB>SX-R4
Otis Grove
by Otis Grove
etree
eye 137
favorite 0
comment 0
Source: Schoeps MK22/MK4>KC5>CMC6>Sonosax SX-R4(24bit/48khz) & SB>SX-R4
Otis Grove
by Otis Grove
etree
eye 248
favorite 0
comment 0
Source: Matrix: Schoeps CCM4's>Areco>SBD>Edirol R-44
Otis Grove
by Otis Grove
etree
eye 39
favorite 0
comment 0
Source: DPA 4011 > V3 Digital > + SBD (mono) > R44 (24/96)
Otis Grove
by Otis Grove
etree
eye 56
favorite 0
comment 0
Source: Schoeps MK22/MK4/sb>Sonosax SX-R4
Otis Grove
by Otis Grove
etree
eye 54
favorite 0
comment 0
Source: Schoeps MK4>Sonosax SX-R4
Otis Grove
by Otis Grove
etree
eye 41
favorite 0
comment 0
Source: DPA 4011 > V3 Digital > + SBD (mono) > R44 (24/96)
Otis Grove
by Otis Grove
etree
eye 102
favorite 0
comment 0
Source: Schoeps MK22/MK4/sb>Sonosax SX-R4
Otis Grove
by Otis Grove
etree
eye 40
favorite 0
comment 0
Source: Schoeps MK4>Sonosax SX-R4